(navigation image)
Home Audio Books & Poetry | Community Audio | Computers & Technology | Grateful Dead | Live Music Archive | Music, Arts & Culture | Netlabels | News & Public Affairs | Non-English Audio | Podcasts | Radio Programs | Spirituality & Religion | The Shady Trees
Search: Advanced Search
Anonymous User (login or join us)
Upload

Listen to audio

item image
Run time: 2:27:13

Stream (help[help])

VBR M3U
MP3 via M3U

Play / Download (help[help])

VBR ZIP

Ogg Vorbis

Lossless zip


All Files: HTTPS Torrent (2/0)

Resources

Bookmark

Reason For LeavingReason For Leaving Live at Luther's Blues on 2002-02-20 (February 20, 2002)

something has gone horribly wrong 8-p
Prefer flash? · Embed · Questions/Feedback?


Collection: ReasonForLeaving
Band/Artist: Reason For Leaving
Date: February 20, 2002 (check for other copies)
Venue: Luther's Blues
Location: Madison, WI

Source: Matrix > CDR-830BURNIT > Master CD-R
Lineage: CDR > SHN > FLAC
Taped by: TAS
Transferred by: TAS
Keywords: Live concert


Description

Planted, Demons, Bladada, Doors With Widgets, Elven Girlfriend, Sun Signal, Bruce Lee, Rollin, Last Child*, intro, Nite Rydr, Green Sugar, Melloship, Sanchez, Butterknife, Blown, Sea Of Loving, we got a couple more, Truf, Goodfoot

Notes

1. Planted
2. Demons
3. Bladada
4. Doors With Widgets
5. Elven Girlfriend
6. Sun Signal
7. Bruce Lee
8. Rollin
9. Last Child*

10. intro
11. Nite Rydr
12. Green Sugar
13. Melloship
14. Sanchez
15. Butterknife
16. Blown
17. Sea Of Loving
18. we got a couple more
19. Truf
20. Goodfoot

* First time played


Break music - Grateful Dead


Source:
DDA CR-8 console stereo matrix mix by Rufus P > HHb CDR-830 BURNIT > master CD-R's

Transfer:
Master CD-R's > Matshita CR-8008 internal SCSI CD-ROM drive > Track Thief v2.0 > AIFF > soundapp v2.7.2 > WAV > Shorten v1.1a3 > SHN

-=-=-=-=-=-=-=-=-=-=-=-=-=-=-=-=-=-=-=-=-=-=-=-=-=-=-=-=-
Soundscape Preservation Society Founded 1991
-=-=-=-=-=-=-=-=-=-=-=-=-=-=-=-=-=-=-=-=-=-=-=-=-=-=-=-=-


length expanded size cdr WAVE problems filename

10:24.61 110217116 --- -- ---xx rfl2002-02-20d1t01.flac
9:07.30 96561404 --- -- ---xx rfl2002-02-20d1t02.flac
9:54.07 104798108 --- -- ---xx rfl2002-02-20d1t03.flac
6:05.12 64414268 --- -- ---xx rfl2002-02-20d1t04.flac
4:03.57 42999308 --- -- ---xx rfl2002-02-20d1t05.flac
12:25.19 131462732 --- -- ---xx rfl2002-02-20d1t06.flac
5:01.29 53164652 --- -- ---xx rfl2002-02-20d1t07.flac
9:20.30 98854604 --- -- ---xx rfl2002-02-20d1t08.flac
6:08.35 64997564 --- -- ---xx rfl2002-02-20d1t09.flac
0:23.17 4097228 --- -- ---xx rfl2002-02-20d2t01.flac
5:30.46 58320236 --- -- ---xx rfl2002-02-20d2t02.flac
6:22.15 67420124 --- -- ---xx rfl2002-02-20d2t03.flac
5:29.43 58136780 --- -- ---xx rfl2002-02-20d2t04.flac
10:19.67 109349228 --- -- ---xx rfl2002-02-20d2t05.flac
6:56.69 73544732 --- -- ---xx rfl2002-02-20d2t06.flac
5:20.73 56619740 --- -- ---xx rfl2002-02-20d2t07.flac
9:00.11 95281916 --- -- ---xx rfl2002-02-20d2t08.flac
0:10.44 1867532 --- -- ---xx rfl2002-02-20d2t09.flac
10:56.08 115737260 --- -- ---xx rfl2002-02-20d2t10.flac
14:11.42 150215228 --- -- ---xx rfl2002-02-20d2t11.flac
147:12.40 1558059760 B (totals for 20 files, 0.4767 overall compression ratio)

Individual Files

Audio Files Flac VBR MP3 Ogg Vorbis
Planted 43.7 MB
13.2 MB
5.8 MB
Demons 45.8 MB
12.7 MB
5.1 MB
Bladada 49.3 MB
13.5 MB
5.5 MB
Doors With Widgets 30.6 MB
8.2 MB
3.4 MB
Elven Girlfriend 20.6 MB
5.1 MB
2.3 MB
Sun Signal 59.5 MB
15.5 MB
7.0 MB
Bruce Lee 23.0 MB
6.3 MB
2.7 MB
Rollin 45.4 MB
12.0 MB
5.2 MB
Last Child 28.6 MB
7.7 MB
3.4 MB
intro 1.4 MB
474.6 KB
212.2 KB
Nite Rydr 26.5 MB
7.0 MB
3.2 MB
Green Sugar 33.3 MB
8.7 MB
3.6 MB
Melloship 26.3 MB
7.0 MB
3.0 MB
Sanchez 49.8 MB
13.8 MB
5.6 MB
Butterknife 31.1 MB
8.9 MB
3.8 MB
Blown 24.4 MB
6.9 MB
2.9 MB
Sea Of Loving 46.1 MB
11.9 MB
5.1 MB
we got a couple more 576.0 KB
212.3 KB
98.5 KB
Truf 52.2 MB
14.3 MB
6.1 MB
Goodfoot 70.1 MB
18.9 MB
8.0 MB
Information FormatSize
rfl2002-02-20-flac16.ffp Flac FingerPrint 1.1 KB
rfl2002-02-20-flac16.md5 Checksums 1.1 KB
rfl2002-02-20-flac16_files.xml Metadata [file]
rfl2002-02-20-flac16_meta.xml Metadata 4.9 KB
rfl2002-02-20-flac16_reviews.xml Metadata 181.0 B
Other Files Archive BitTorrent Text
rfl2002-02-20-flac16_archive.torrent 50.6 KB
informative textfile 3.5 KB

Be the first to write a review
Downloaded 1,257 times
Reviews